Cat Stevens - The Very Best Of [Flac][TntVillage] | One Night Surprise | Blindspot
logo

Exodus Gods And Kings 2014 1080p HDTS x264 Pimp4003

  • Category Movies
  • Type Divx/Xvid
  • Language English
  • Total size 4.1 GB
  • Uploaded By pimp4003
  • Downloads 5320
  • Last checked 1 day ago
  • Date uploaded 3 years ago
  • Seeders 0
  • Leechers 0

Exodus: Gods and Kings

ActionAdventureDrama

The defiant leader Moses rises up against the Egyptian Pharaoh Ramses, setting 600,000 slaves on a monumental journey of escape from Egypt and its terrifying cycle of deadly plagues.

Infohash : 5DEEF638B401C2194AF7F82B1EB32090513D3C8D

THIS IS HDTS WHICH IS NOT BLURAY OR HDRIP OR ANY OTHER RIP....ITS CAM VIDEO WHICH I DID A LOT OF WORK ON IT TO MAKE IT VERY VERY GOOD AND AUDIO IS LINE WHICH IS A TS....AGAIN NOT A BLURAY OR HDRIP AND IT IS A 1080P AS RESOLUTION IS 1920*1080 AND IT WAS FLIMED USING A 1080P HD CAMERA

Download Exodus Gods And Kings 2014 1080p HDTS x264 Pimp4003 Torrent

PIMP THE ONE AND ONLY PIMPSTER.....PRESENTS



http://twitter.com/PIMP4003DOTNET

Download Exodus Gods And Kings 2014 1080p HDTS x264 Pimp4003 Torrent

Exodus Gods And Kings 2014 1080p HDTS x264 Pimp4003

http://www.imdb.com/title/tt1528100/

The defiant leader Moses rises up against the Egyptian Pharaoh Ramses, setting 600,000 slaves on a monumental journey of escape from Egypt and its terrifying cycle of deadly plagues.

Director: Ridley Scott
Writers: Adam Cooper, Bill Collage, 2 more credits »
Stars: Christian Bale, Joel Edgerton, Ben Kingsley | See full cast and crew »

Video
ID : 1
Format : MPEG-4 Visual
Format profile : [email protected]
Format settings, BVOP : No
Format settings, QPel : No
Format settings, GMC : No warppoints
Format settings, Matrix : Default (H.263)
Codec ID : 20
Duration : 2h 20mn
Bit rate : 4 054 Kbps
Width : 1 920 pixels
Height : 1 080 pixels
Display aspect ratio : 16:9
Frame rate mode : Variable
Frame rate : 23.976 fps
Minimum frame rate : 23.976 fps
Maximum frame rate : 24.000 fps
Color space : YUV
Chroma subsampling : 4:2:0
Bit depth : 8 bits
Scan type : Progressive
Compression mode : Lossy
Bits/(Pixel*Frame) : 0.082
Stream size : 3.98 GiB (97%)
Writing library : ZJMedia MPEG Encoder

Audio
ID : 2
Format : AAC
Format/Info : Advanced Audio Codec
Format profile : LC
Codec ID : 40
Duration : 2h 20mn
Bit rate mode : Variable
Bit rate : 128 Kbps
Channel(s) : 2 channels
Channel positions : Front: L R
Sampling rate : 48.0 KHz
Compression mode : Lossy
Stream size : 129 MiB (3%)


Download Exodus Gods And Kings 2014 1080p HDTS x264 Pimp4003 Torrent
Download Exodus Gods And Kings 2014 1080p HDTS x264 Pimp4003 Torrent
Download Exodus Gods And Kings 2014 1080p HDTS x264 Pimp4003 Torrent

Files:

  • Exodus Gods And Kings 2014 1080p HDTS x264 Pimp4003.mp4 (4.1 GB)

There are currently no comments. Feel free to leave one :)

Code:

  • udp://inferno.demonoid.ph:3389/announce
  • udp://open.demonii.com:1337/announce
  • http://tracker1.wasabii.com.tw:6969/announce
  • udp://open.demonii.com:1337/announce
  • udp://tracker.istole.it:80/announce
  • udp://tracker.publicbt.com:80/announce
  • udp://tracker.openbittorrent.com:80/announce
  • udp://9.rarbg.com:2710/announce