Lucile Watson | My Daughter Is Missing | Jonathan Young
logo

Night At The Museum Secret Of The Tomb 2014 720p HDCAM FIRST ENG ...

  • Category Movies
  • Type Divx/Xvid
  • Language English
  • Total size 1.6 GB
  • Uploaded By pimp4003
  • Downloads 10009
  • Last checked 1 day ago
  • Date uploaded 3 years ago
  • Seeders 0
  • Leechers 0

Night at the Museum: Secret of the ...

AdventureComedyFantasyFamily

When the magic powers of The Tablet of Ahkmenrah begin to die out, Larry Daley (Ben Stiller) spans the globe, uniting favorite and new characters while embarking on an epic quest to save the magic before it is gone forever.

Infohash : FE1F0E13A4B96D98498327FC23C763A4562ADE23

LIKE ALWAYS PIMP4003 COMES OUT WITH A FIRST AND A PIMP4003 EXCLUSIVE...ENJOY

Download Night At The Museum Secret Of The Tomb 2014 720p HDCAM FIRST ENG x264 Pimp4003 Torrent

PIMP THE ONE AND ONLY PIMPSTER.....PRESENTS



http://twitter.com/PIMP4003DOTNET

Download Night At The Museum Secret Of The Tomb 2014 720p HDCAM FIRST ENG x264 Pimp4003 Torrent

Night At The Museum Secret Of The Tomb 2014 720p HDCAM FIRST ENG x264 Pimp4003

http://www.imdb.com/title/tt2692250/

Larry spans the globe, uniting favorite and new characters while embarking on an epic quest to save the magic before it is gone forever.

Director: Shawn Levy
Writers: David Guion (screenplay), Michael Handelman (screenplay), 5 more credits ยป
Stars: Ben Stiller, Robin Williams, Owen Wilson | See full cast and crew

Video
ID : 1
Format : MPEG-4 Visual
Format profile : [email protected]
Format settings, BVOP : No
Format settings, QPel : No
Format settings, GMC : No warppoints
Format settings, Matrix : Default (H.263)
Codec ID : 20
Duration : 1h 32mn
Bit rate : 2 391 Kbps
Width : 1 280 pixels
Height : 536 pixels
Display aspect ratio : 2.40:1
Frame rate mode : Variable
Frame rate : 59.940 fps
Minimum frame rate : 59.916 fps
Maximum frame rate : 60.157 fps
Color space : YUV
Chroma subsampling : 4:2:0
Bit depth : 8 bits
Scan type : Progressive
Compression mode : Lossy
Bits/(Pixel*Frame) : 0.058
Stream size : 1.54 GiB (95%)
Writing library : ZJMedia MPEG Encoder

Audio
ID : 2
Format : AAC
Format/Info : Advanced Audio Codec
Format profile : LC
Codec ID : 40
Duration : 1h 32mn
Bit rate mode : Variable
Bit rate : 124 Kbps
Channel(s) : 2 channels
Channel positions : Front: L R
Sampling rate : 48.0 KHz
Compression mode : Lossy
Stream size : 81.9 MiB (5%)

Download Night At The Museum Secret Of The Tomb 2014 720p HDCAM FIRST ENG x264 Pimp4003 Torrent
Download Night At The Museum Secret Of The Tomb 2014 720p HDCAM FIRST ENG x264 Pimp4003 Torrent
Download Night At The Museum Secret Of The Tomb 2014 720p HDCAM FIRST ENG x264 Pimp4003 Torrent

Files:

  • Night At The Museum Secret Of The Tomb 2014 720p HDCAM FIRST ENG x264 Pimp4003.mp4 (1.6 GB)

There are currently no comments. Feel free to leave one :)

Code:

  • udp://inferno.demonoid.ph:3389/announce
  • udp://open.demonii.com:1337/announce
  • http://tracker1.wasabii.com.tw:6969/announce
  • udp://open.demonii.com:1337/announce
  • udp://tracker.istole.it:80/announce
  • udp://tracker.publicbt.com:80/announce
  • udp://tracker.openbittorrent.com:80/announce
  • udp://9.rarbg.com:2710/announce