Watch movie | God of Martial Arts: chapter 2.3 | Buddha Cafe
logo

Lust Stories (2018) WEB-DL NetFlix 720p Hindi H.264 AAC - LatestH...

  • Category Movies
  • Type Bollywood
  • Language Hindi
  • Total size 1.1 GB
  • Uploaded By LHDM
  • Downloads 15129
  • Last checked 1 month ago
  • Date uploaded 1 month ago
  • Seeders 137
  • Leechers 26

Lust Stories

Drama

In the companion to 2013's "Bombay Talkies," four short films by four of India's biggest directors explore love, sex, and relationships in modern India.

Infohash : DAD04C7AED818BBB2F88DE1E204FC1153B18E7E8

Download Lust Stories (2018) WEB-DL NetFlix 720p Hindi H.264 AAC - LatestHDMovies Torrent



[[>>SAMPLE<<]]
http://oload.stream/f/78t2cgqf_xQ/vlc-record-2018-06-15-19h12m01s-LatestHDMovies___TeamSHAHID-.mp4



Download Lust Stories (2018) WEB-DL NetFlix 720p Hindi H.264 AAC - LatestHDMovies Torrent



General
Unique ID                   : 155259193542870321553623712363057500656 (0x74CDD53F64D08D3769C1263445B3D1F0)
Complete name               : C:\Users\Shahid\Downloads\Video\Lust Stories (2018) WEB-DL 720p Hindi H.264 AAC - LatestHDMovies.mkv
Format                      : Matroska
Format version              : Version 4 / Version 2
File size                   : 1.12 GiB
Duration                    : 2 h 0 min
Overall bit rate            : 1 335 kb/s
Movie name                  : LatestHDMovies | TeamSHAHID
Encoded date                : UTC 2018-06-15 14:02:53
Writing application         : mkvmerge v23.0.0 ('The Bride Said No') 32-bit
Writing library             : libebml v1.3.6 + libmatroska v1.4.9
Cover                       : Yes
Attachments                 : Cover.jpg

Video
ID                          : 1
Format                      : AVC
Format/Info                 : Advanced Video Codec
Format profile              : [email protected]
Format settings             : CABAC / 5 Ref Frames
Format settings, CABAC      : Yes
Format settings, ReFrames   : 5 frames
Codec ID                    : V_MPEG4/ISO/AVC
Duration                    : 2 h 0 min
Bit rate                    : 1 216 kb/s
Width                       : 1 280 pixels
Height                      : 720 pixels
Display aspect ratio        : 16:9
Frame rate mode             : Constant
Frame rate                  : 24.000 FPS
Color space                 : YUV
Chroma subsampling          : 4:2:0
Bit depth                   : 8 bits
Scan type                   : Progressive
Bits/(Pixel*Frame)          : 0.055
Stream size                 : 1.01 GiB (90%)
Title                       : LatestHDMovies | TeamSHAHID
Writing library             : x264 core 148 r2643 5c65704
Encoding settings           : cabac=1 / ref=5 / deblock=1:0:0 / analyse=0x3:0x113 / me=hex / subme=7 / psy=1 / psy_rd=1.00:0.00 / mixed_ref=1 / me_range=16 / chroma_me=1 / trellis=1 / 8x8dct=1 / cqm=0 / deadzone=21,11 / fast_pskip=1 / chroma_qp_offset=-2 / threads=8 / lookahead_threads=8 / sliced_threads=1 / slices=8 / nr=0 / decimate=1 / interlaced=0 / bluray_compat=0 / constrained_intra=0 / bframes=0 / weightp=2 / keyint=250 / keyint_min=24 / scenecut=40 / intra_refresh=0 / rc=abr / mbtree=0 / bitrate=1216 / ratetol=1.0 / qcomp=0.60 / qpmin=0 / qpmax=69 / qpstep=4 / ip_ratio=1.40 / aq=1:1.00
Language                    : Hindi
Default                     : Yes
Forced                      : No

Audio
ID                          : 2
Format                      : AAC
Format/Info                 : Advanced Audio Codec
Format profile              : LC
Codec ID                    : A_AAC-2
Duration                    : 2 h 0 min
Bit rate                    : 128 kb/s
Channel(s)                  : 2 channels
Channel positions           : Front: L R
Sampling rate               : 48.0 kHz
Frame rate                  : 46.875 FPS (1024 SPF)
Compression mode            : Lossy
Delay relative to video     : -43 ms
Stream size                 : 110 MiB (10%)
Title                       : LatestHDMovies | TeamSHAHID
Language                    : Hindi
Default                     : Yes
Forced                      : No


Download Lust Stories (2018) WEB-DL NetFlix 720p Hindi H.264 AAC - LatestHDMovies Torrent
Download Lust Stories (2018) WEB-DL NetFlix 720p Hindi H.264 AAC - LatestHDMovies Torrent
Download Lust Stories (2018) WEB-DL NetFlix 720p Hindi H.264 AAC - LatestHDMovies Torrent
Download Lust Stories (2018) WEB-DL NetFlix 720p Hindi H.264 AAC - LatestHDMovies Torrent
Download Lust Stories (2018) WEB-DL NetFlix 720p Hindi H.264 AAC - LatestHDMovies Torrent
Download Lust Stories (2018) WEB-DL NetFlix 720p Hindi H.264 AAC - LatestHDMovies Torrent
Download Lust Stories (2018) WEB-DL NetFlix 720p Hindi H.264 AAC - LatestHDMovies Torrent
Download Lust Stories (2018) WEB-DL NetFlix 720p Hindi H.264 AAC - LatestHDMovies Torrent
Download Lust Stories (2018) WEB-DL NetFlix 720p Hindi H.264 AAC - LatestHDMovies Torrent
Download Lust Stories (2018) WEB-DL NetFlix 720p Hindi H.264 AAC - LatestHDMovies Torrent
Download Lust Stories (2018) WEB-DL NetFlix 720p Hindi H.264 AAC - LatestHDMovies Torrent
Download Lust Stories (2018) WEB-DL NetFlix 720p Hindi H.264 AAC - LatestHDMovies Torrent
Download Lust Stories (2018) WEB-DL NetFlix 720p Hindi H.264 AAC - LatestHDMovies Torrent


Files:

  • Lust Stories (2018) WEB-DL 720p Hindi H.264 AAC - LatestHDMovies.mkv (1.1 GB)

Comments

Code:

  • udp://tracker.openbittorrent.com:80/announce
  • udp://tracker.publicbt.com:80/announce
  • udp://tracker.coppersurfer.tk:6969/announce
  • udp://tracker.ilibr.org:6969/announce
  • udp://tracker.ilibr.org:80/announce
  • udp://tracker.opentrackr.org:1337/announce
  • udp://zer0day.to:1337/announce
  • udp://tracker.zer0day.to:1337/announce
  • udp://p4p.arenabg.com:1337/announce
  • udp://p4p.arenabg.ch:1337/announce
  • udp://tracker.leechers-paradise.org:6969/announce
  • udp://explodie.org:6969/announce
  • udp://9.rarbg.to:2710/announce
  • udp://eddie4.nl:6969/announce
  • udp://9.rarbg.to:2770/announce