The Bold Type - Saison 2 Ajout de l'épisode 05 | What Your Clutter Is Trying to Tell You | Officially Translated Light Novels (LNs) v2.0 Officially Translated Light Novels (LNs) v2.0
logo

Race 3 (2018) PreDvDRip v2 720p Hindi H.264 AAC - LatestHDMovies

  • Category Movies
  • Type Bollywood
  • Language Hindi
  • Total size 1.4 GB
  • Uploaded By LHDM
  • Downloads 14607
  • Last checked 1 week ago
  • Date uploaded 2 weeks ago
  • Seeders 117
  • Leechers 27

Race 3

ThrillerAction

The story of a landowner who gets sabotaged by a criminal.

Infohash : 11BB091F3C6A88584D88AF568431F7D4702407E4

Download Race 3 (2018) PreDvDRip v2 720p Hindi H.264 AAC - LatestHDMovies Torrent



[[>>SAMPLE<<]]
http://oload.stream/f/WZTKY1ewizY/vlc-record-2018-06-28-19h25m29s-LatestHDMovies___TeamSHAHID-.mp4



Download Race 3 (2018) PreDvDRip v2 720p Hindi H.264 AAC - LatestHDMovies Torrent



General
Unique ID                   : 260652003060681077201126238991682651045 (0xC417BFF1505BD159FB769B227CB043A5)
Complete name               : E:\Bollywood\Race 3 (2018) PreDvDRip v2 720p Hindi H.264 AAC - LatestHDMovies.mkv
Format                      : Matroska
Format version              : Version 4 / Version 2
File size                   : 1.45 GiB
Duration                    : 2 h 31 min
Overall bit rate            : 1 368 kb/s
Movie name                  : LatestHDMovies | TeamSHAHID
Encoded date                : UTC 2018-06-28 14:10:41
Writing application         : mkvmerge v24.0.0 ('Beyond The Pale') 32-bit
Writing library             : libebml v1.3.6 + libmatroska v1.4.9
Cover                       : Yes
Attachments                 : Cover.jpg

Video
ID                          : 1
Format                      : AVC
Format/Info                 : Advanced Video Codec
Format profile              : [email protected]
Format settings             : CABAC / 13 Ref Frames
Format settings, CABAC      : Yes
Format settings, ReFrames   : 13 frames
Codec ID                    : V_MPEG4/ISO/AVC
Duration                    : 2 h 31 min
Bit rate                    : 1 238 kb/s
Width                       : 1 280 pixels
Height                      : 480 pixels
Display aspect ratio        : 2.667
Frame rate mode             : Constant
Frame rate                  : 25.000 FPS
Color space                 : YUV
Chroma subsampling          : 4:2:0
Bit depth                   : 8 bits
Scan type                   : Progressive
Bits/(Pixel*Frame)          : 0.081
Stream size                 : 1.31 GiB (91%)
Title                       : LatestHDMovies | TeamSHAHID
Writing library             : x264 core 155 r2901 7d0ff22
Encoding settings           : cabac=1 / ref=13 / deblock=1:-2:-1 / analyse=0x3:0x133 / me=umh / subme=10 / psy=1 / psy_rd=1.00:1.50 / mixed_ref=1 / me_range=16 / chroma_me=1 / trellis=2 / 8x8dct=1 / cqm=0 / deadzone=21,11 / fast_pskip=1 / chroma_qp_offset=-4 / threads=15 / lookahead_threads=3 / sliced_threads=0 / nr=0 / decimate=0 / interlaced=0 / bluray_compat=0 / constrained_intra=0 / bframes=12 / b_pyramid=0 / b_adapt=2 / b_bias=0 / direct=3 / weightb=1 / open_gop=0 / weightp=2 / keyint=240 / keyint_min=1 / scenecut=288 / intra_refresh=0 / rc_lookahead=60 / rc=2pass / mbtree=1 / bitrate=1238 / ratetol=1.0 / qcomp=0.90 / qpmin=3 / qpmax=69 / qpstep=4 / cplxblur=20.0 / qblur=0.5 / ip_ratio=1.40 / aq=1:1.00
Language                    : Hindi
Default                     : Yes
Forced                      : No
Color range                 : Limited
Color primaries             : BT.709
Transfer characteristics    : BT.709
Matrix coefficients         : BT.709

Audio
ID                          : 2
Format                      : AAC
Format/Info                 : Advanced Audio Codec
Format profile              : HE-AAC / LC
Format settings             : Explicit
Codec ID                    : A_AAC-2
Duration                    : 2 h 31 min
Bit rate                    : 128 kb/s
Channel(s)                  : 2 channels
Channel positions           : Front: L R
Sampling rate               : 48.0 kHz / 24.0 kHz
Frame rate                  : 23.438 FPS (1024 SPF)
Compression mode            : Lossy
Delay relative to video     : 31 ms
Stream size                 : 139 MiB (9%)
Title                       : LatestHDMovies | TeamSHAHID
Language                    : Hindi
Default                     : Yes
Forced                      : No


Download Race 3 (2018) PreDvDRip v2 720p Hindi H.264 AAC - LatestHDMovies Torrent
Download Race 3 (2018) PreDvDRip v2 720p Hindi H.264 AAC - LatestHDMovies Torrent
Download Race 3 (2018) PreDvDRip v2 720p Hindi H.264 AAC - LatestHDMovies Torrent
Download Race 3 (2018) PreDvDRip v2 720p Hindi H.264 AAC - LatestHDMovies Torrent
Download Race 3 (2018) PreDvDRip v2 720p Hindi H.264 AAC - LatestHDMovies Torrent
Download Race 3 (2018) PreDvDRip v2 720p Hindi H.264 AAC - LatestHDMovies Torrent
Download Race 3 (2018) PreDvDRip v2 720p Hindi H.264 AAC - LatestHDMovies Torrent
Download Race 3 (2018) PreDvDRip v2 720p Hindi H.264 AAC - LatestHDMovies Torrent
Download Race 3 (2018) PreDvDRip v2 720p Hindi H.264 AAC - LatestHDMovies Torrent
Download Race 3 (2018) PreDvDRip v2 720p Hindi H.264 AAC - LatestHDMovies Torrent
Download Race 3 (2018) PreDvDRip v2 720p Hindi H.264 AAC - LatestHDMovies Torrent
Download Race 3 (2018) PreDvDRip v2 720p Hindi H.264 AAC - LatestHDMovies Torrent
Download Race 3 (2018) PreDvDRip v2 720p Hindi H.264 AAC - LatestHDMovies Torrent
Download Race 3 (2018) PreDvDRip v2 720p Hindi H.264 AAC - LatestHDMovies Torrent
Download Race 3 (2018) PreDvDRip v2 720p Hindi H.264 AAC - LatestHDMovies Torrent
Download Race 3 (2018) PreDvDRip v2 720p Hindi H.264 AAC - LatestHDMovies Torrent


Files:

  • Race 3 (2018) PreDvDRip v2 720p Hindi H.264 AAC - LatestHDMovies.mkv (1.4 GB)

Comments

Code:

  • udp://tracker.opentrackr.org:1337/announce
  • udp://9.rarbg.me:2710/announce
  • udp://9.rarbg.com:2710/announce
  • udp://shadowshq.yi.org:6969/announce
  • udp://p4p.arenabg.com:1337/announce
  • udp://ipv4.tracker.harry.lu:80/announce
  • udp://tracker.leechers-paradise.org:6969/announce
  • udp://tracker.eddie4.nl:6969/announce
  • udp://shadowshq.eddie4.nl:6969/announce
  • udp://tracker.coppersurfer.tk:80/announce
  • udp://tracker.coppersurfer.tk:6969/announce
  • udp://9.rarbg.me:2780/announce
  • udp://9.rarbg.to:2710/announce
  • udp://p4p.arenabg.ch:1337/announce
  • udp://tracker.zer0day.to:1337/announce
  • udp://tracker.leechers-paradise.org:6969/announce
  • udp://coppersurfer.tk:6969/announce