Danchigai | Watch movie | Science-Fiction
logo

På fylla-10 Drunken Short Stories (2017) - 720p x265 HEVC - NOR ...

  • Category TV
  • Type HEVC/x265
  • Language Norwegian
  • Total size 305.3 MB
  • Uploaded By Baryshnikov
  • Downloads 24
  • Last checked 20 minutes ago
  • Date uploaded 2 days ago
  • Seeders 12
  • Leechers 1

Infohash : 447E661F7A837159E3C95F7EC6552216121B2B1B

Short stories from the reality of what can happen when you end up filling. Here you can see the stupid, the weird, the creative and the hopeless... maybe you're here too.

Download På fylla-10 Drunken Short Stories (2017) - 720p x265 HEVC - NOR (HARD ENG SUBS) [BRSHNKV] Torrent
Download På fylla-10 Drunken Short Stories (2017) - 720p x265 HEVC - NOR (HARD ENG SUBS) [BRSHNKV] Torrent
Download På fylla-10 Drunken Short Stories (2017) - 720p x265 HEVC - NOR (HARD ENG SUBS) [BRSHNKV] Torrent
Download På fylla-10 Drunken Short Stories (2017) - 720p x265 HEVC - NOR (HARD ENG SUBS) [BRSHNKV] Torrent
Download På fylla-10 Drunken Short Stories (2017) - 720p x265 HEVC - NOR (HARD ENG SUBS) [BRSHNKV] Torrent


Same settings for all eps:

Format : MPEG-4
Format profile : Base Media / Version 2
Codec ID : mp42
Overall bit rate mode : Variable
Overall bit rate : 1 346 Kbps
Encoded date : UTC 2018-07-12 20:37:09
Tagged date : UTC 2018-07-12 20:37:09
Writing application : HandBrake 20160211184813-ffd8cb1-master 2016021301

Video
ID : 1
Format : HEVC
Format/Info : High Efficiency Video Coding
Format profile : Main [email protected]@Main
Codec ID : hev1
Codec ID/Info : High Efficiency Video Coding
Bit rate : 1 184 Kbps
Width : 1 280 pixels
Height : 720 pixels
Display aspect ratio : 16:9
Frame rate mode : Constant
Frame rate : 25.000 fps
Color space : YUV
Chroma subsampling : 4:2:0
Bit depth : 10 bits
Bits/(Pixel*Frame) : 0.051
Stream size : 23.2 MiB (88%)
Writing library : x265 1.9:[Mac OS X][clang 7.0.2][64 bit] 10bit
Encoded date : UTC 2018-07-12 20:37:09
Tagged date : UTC 2018-07-12 20:37:09
Color range : Limited
Color primaries : BT.709
Transfer characteristics : BT.709
Matrix coefficients : BT.709

Audio
ID : 2
Format : AAC
Format/Info : Advanced Audio Codec
Format profile : LC
Codec ID : 40
Bit rate mode : Variable
Bit rate : 157 Kbps
Channel(s) : 2 channels
Channel positions : Front: L R
Sampling rate : 48.0 KHz
Compression mode : Lossy
Stream size : 3.07 MiB (12%)
Title : Stereo / Stereo
Language : Norwegian
Encoded date : UTC 2018-07-12 20:37:09
Tagged date : UTC 2018-07-12 20:37:09

Files:

På fylla-10 Drunken Short Stories (2017) - 720p x265 HEVC - NOR (HARD ENG SUBS) [BRSHNKV]
  • På fylla - 01 .mp4 (37.9 MB)
  • På fylla - 02 .mp4 (30.0 MB)
  • På fylla - 03 .mp4 (35.5 MB)
  • På fylla - 04 .mp4 (25.6 MB)
  • På fylla - 05 .mp4 (36.0 MB)
  • På fylla - 06 .mp4 (27.6 MB)
  • På fylla - 07 .mp4 (22.7 MB)
  • På fylla - 08 .mp4 (32.9 MB)
  • På fylla - 09 .mp4 (30.8 MB)
  • På fylla - 10 .mp4 (26.4 MB)

Comments

Code:

  • udp://tracker.coppersurfer.tk:6969/announce